Категории
Добро пожаловать на музыкальный торрент трекер без регистрации - Sound-Park  ι  Стать пользователем  ι  Войти  ι  Напомнить пароль?

Evanescence - Synthesis Live (Blu-ray, 2018)

Symphonic Metal  Gothic Metal
 
Дата: 16 октября 2018
Добавил: SergShicko
Просмотров: 2898
  • ИСПОЛНИТЕЛЬ: Evanescence
  • АЛЬБОМ / НАЗВАНИЕ: Synthesis Live
  • ГОД / ДАТА ВЫХОДА: 2018
  • СТРАНА: USA
  • ТОЧНЫЙ ЖАНР(Ы): Symphonic Metal, Gothic Metal
  • ЛЕЙБЛ: ℗© 2018 Eagle Rock Entertainment Ltd.
  • ПРОДОЛЖИТЕЛЬНОСТЬ: 01:28:27
  • ФОРМАТ: BDMV
  • КАЧЕСТВО: Blu-ray, 1080p
  • Аудио: см. Info
  • Видео: MPEG-4 AVC Video / 29994 kbps / 1080p / 23,976 fps / 16:9 / High Profile 4.1

  • РЕЙТИНГ: 10 / 9    
  • ГОЛОСОВАТЬ:

  • СКАЧАТЬ: ПРЯМАЯ ССЫЛКА НА ТОРРЕНТ

Описание альбома


Filmed at the Grand Theater, Connecticut, Fall 2017
1 Overture
2 Never Go Back
3 Lacrymosa
4 End Of The Dream
5 My Heart Is Broken
6 Lithium
7 Bring Me To Life
8 Unraveling (Interlude)
9 Imaginery
10 Secret Door
11 Hi-Lo
12 Lost In Paradise
13 Your Star
14 My Immortal
15 The In-Between
16 Imperfection
17 Speak To Me
18 Good Enough
19 Swimming Home

Bonus Video
20 Hi-Lo Featuring Lindsey Stirling


Качество: Blu-ray
Разрешение видео/развертка: 1080p
Контейнер: BDMV
Видео кодек: AVC
Аудио кодек: PCM / DTS
Видео: MPEG-4 AVC Video / 29994 kbps / 1080p / 23,976 fps / 16:9 / High Profile 4.1
Аудио #1: LPCM Audio / English / 2.0 / 48 kHz / 1536 kbps / 16-bit
Аудио #2: DTS-HD Master Audio / English / 5.1 / 48 kHz / 2884 kbps / 16-bit (DTS Core: 5.1 / 48 kHz / 1509 kbps / 16-bit)


Disc Title: Evanescence - Synthesis Live
Disc Size: 24 837 795 963 bytes
Protection: AACS
BD-Java: No
BDInfo: 0.5.8
Notes:
BDINFO HOME:
Cinema Squid
http://www.cinemasquid.com/blu-ray/tools/bdinfo
INCLUDES FORUMS REPORT FOR:
AVS Forum Blu-ray Audio and Video Specifications Thread
http://www.avsforum.com/avs-vb/showthread.php?t=1155731
********************
PLAYLIST: 00000.MPLS
********************


Код:
Total Video
Title Codec Length Movie Size Disc Size Bitrate Bitrate Main Audio Track Secondary Audio Track
----- ------ ------- -------------- -------------- ------- ------- ------------------ ---------------------
00000.MPLS AVC 1:23:19 22 787 917 824 24 837 795 963 36,46 29,99 LPCM 2.0 1536Kbps (48kHz/16-bit) DTS-HD Master 5.1 2884Kbps (48kHz/16-bit)
Код:
DISC INFO:
Disc Title: Evanescence - Synthesis Live
Disc Size: 24 837 795 963 bytes
Protection: AACS
BD-Java: No
BDInfo: 0.5.8
PLAYLIST REPORT:
Name: 00000.MPLS
Length: 1:23:19.411 (hs.ms)
Size: 22 787 917 824 bytes
Total Bitrate: 36,46 Mbps
VIDEO:
Codec Bitrate Description
----- ------- -----------
MPEG-4 AVC Video 29994 kbps 1080p / 23,976 fps / 16:9 / High Profile 4.1
AUDIO:
Codec Language Bitrate Description
----- -------- ------- -----------
LPCM Audio English 1536 kbps 2.0 / 48 kHz / 1536 kbps / 16-bit
DTS-HD Master Audio English 2884 kbps 5.1 / 48 kHz / 2884 kbps / 16-bit (DTS Core: 5.1 / 48 kHz / 1509 kbps / 16-bit)
FILES:
Name Time In Length Size Total Bitrate
---- ------- ------ ---- -------------
00000.M2TS 0:00:00.000 1:23:19.411 22 787 917 824 36 465
CHAPTERS:
Number Time In Length Avg Video Rate Max 1-Sec Rate Max 1-Sec Time Max 5-Sec Rate Max 5-Sec Time Max 10Sec Rate Max 10Sec Time Avg Frame Size Max Frame Size Max Frame Time
------ ------- ------ -------------- -------------- -------------- -------------- -------------- -------------- -------------- -------------- -------------- --------------
1 0:00:00.000 0:01:28.087 27 442 kbps 40 725 kbps 00:00:23.189 34 260 kbps 00:00:19.185 33 140 kbps 00:01:15.492 143 000 bytes 384 475 bytes 00:00:23.898
2 0:01:28.087 0:05:05.304 30 753 kbps 37 790 kbps 00:01:42.685 33 775 kbps 00:01:38.640 33 049 kbps 00:06:03.488 160 333 bytes 408 896 bytes 00:03:17.614
3 0:06:33.392 0:03:28.208 31 640 kbps 35 822 kbps 00:08:27.757 33 408 kbps 00:08:23.711 32 965 kbps 00:08:02.482 164 954 bytes 410 863 bytes 00:09:59.890
4 0:10:01.601 0:05:15.940 29 770 kbps 36 153 kbps 00:13:59.004 33 291 kbps 00:13:58.379 33 002 kbps 00:14:53.475 155 205 bytes 404 535 bytes 00:12:49.560
5 0:15:17.541 0:04:50.957 29 961 kbps 36 395 kbps 00:18:21.058 33 390 kbps 00:19:42.472 33 090 kbps 00:19:37.467 156 201 bytes 387 869 bytes 00:16:14.556
6 0:20:08.498 0:04:15.088 30 798 kbps 38 264 kbps 00:24:21.543 33 119 kbps 00:24:06.820 32 978 kbps 00:24:01.648 160 565 bytes 393 724 bytes 00:21:52.769
7 0:24:23.587 0:04:17.131 30 364 kbps 38 641 kbps 00:28:35.422 33 262 kbps 00:27:46.539 32 945 kbps 00:27:03.705 158 303 bytes 387 262 bytes 00:26:54.904
8 0:28:40.719 0:01:39.349 29 317 kbps 35 571 kbps 00:30:16.689 33 515 kbps 00:30:13.937 32 919 kbps 00:29:26.598 152 845 bytes 405 452 bytes 00:30:17.524
9 0:30:20.068 0:04:17.006 30 394 kbps 35 293 kbps 00:34:22.602 33 146 kbps 00:33:17.912 33 004 kbps 00:34:13.593 158 460 bytes 380 504 bytes 00:34:05.835
10 0:34:37.075 0:04:16.256 29 628 kbps 34 523 kbps 00:35:26.541 33 155 kbps 00:38:07.827 32 987 kbps 00:38:02.905 154 468 bytes 357 070 bytes 00:35:27.500
11 0:38:53.331 0:05:04.053 28 368 kbps 39 293 kbps 00:43:43.829 34 105 kbps 00:43:39.825 33 354 kbps 00:43:34.778 147 897 bytes 487 810 bytes 00:42:47.273
12 0:43:57.384 0:04:43.533 30 795 kbps 34 513 kbps 00:46:40.923 33 128 kbps 00:46:36.919 32 924 kbps 00:48:01.879 160 554 bytes 390 243 bytes 00:46:42.883
13 0:48:40.917 0:05:06.514 29 335 kbps 38 564 kbps 00:49:02.105 33 131 kbps 00:52:21.555 32 998 kbps 00:52:16.424 152 939 bytes 382 892 bytes 00:52:26.393
14 0:53:47.432 0:04:41.072 30 747 kbps 39 953 kbps 00:58:14.574 34 258 kbps 00:58:10.487 33 495 kbps 00:58:05.565 160 301 bytes 363 743 bytes 00:56:02.442
15 0:58:28.505 0:01:55.114 28 964 kbps 33 922 kbps 00:59:12.215 32 978 kbps 00:59:16.636 32 834 kbps 00:59:11.631 151 007 bytes 323 205 bytes 00:59:14.050
16 1:00:23.620 0:04:52.959 31 802 kbps 35 469 kbps 01:03:45.071 33 252 kbps 01:01:17.507 33 055 kbps 01:01:15.505 165 803 bytes 365 083 bytes 01:03:53.955
17 1:05:16.579 0:06:32.725 27 943 kbps 34 890 kbps 01:08:25.476 33 121 kbps 01:07:10.401 32 932 kbps 01:09:33.335 145 682 bytes 381 328 bytes 01:08:14.340
18 1:11:49.305 0:05:38.463 31 893 kbps 34 317 kbps 01:14:03.063 33 132 kbps 01:17:01.783 32 975 kbps 01:16:56.903 166 276 bytes 340 466 bytes 01:16:58.947
19 1:17:27.768 0:05:51.642 28 568 kbps 34 554 kbps 01:21:34.180 33 156 kbps 01:21:30.135 33 015 kbps 01:22:02.834 148 959 bytes 383 421 bytes 01:21:08.446
STREAM DIAGNOSTICS:
File PID Type Codec Language Seconds Bitrate Bytes Packets
---- --- ---- ----- -------- -------------- -------------- ------------- -----
00000.M2TS 4113 (0x1011) 0x1B AVC 4999,244 29 995 18 744 108 111 101 940 105
00000.M2TS 4352 (0x1100) 0x80 LPCM eng (English) 4999,244 1 542 963 887 212 5 999 298
00000.M2TS 4353 (0x1101) 0x86 DTS-HD MA eng (English) 4999,244 2 884 1 802 435 096 10 580 147


QUICK SUMMARY:
Disc Title: Evanescence - Synthesis Live
Disc Size: 24 837 795 963 bytes
Protection: AACS
BD-Java: No
Playlist: 00000.MPLS
Size: 22 787 917 824 bytes
Length: 1:23:19.411
Total Bitrate: 36,46 Mbps
Video: MPEG-4 AVC Video / 29994 kbps / 1080p / 23,976 fps / 16:9 / High Profile 4.1
Audio: English / LPCM Audio / 2.0 / 48 kHz / 1536 kbps / 16-bit
Audio: English / DTS-HD Master Audio / 5.1 / 48 kHz / 2884 kbps / 16-bit (DTS Core: 5.1 / 48 kHz / 1509 kbps / 16-bit)
********************
PLAYLIST: 00011.MPLS
********************


Код:
Total Video
Title Codec Length Movie Size Disc Size Bitrate Bitrate Main Audio Track Secondary Audio Track
----- ------ ------- -------------- -------------- ------- ------- ------------------ ---------------------
00011.MPLS AVC 1:23:19 22 787 917 824 24 837 795 963 36,46 29,99 LPCM 2.0 1536Kbps (48kHz/16-bit) DTS-HD Master 5.1 2884Kbps (48kHz/16-bit)
Код:
DISC INFO:
Disc Title: Evanescence - Synthesis Live
Disc Size: 24 837 795 963 bytes
Protection: AACS
BD-Java: No
BDInfo: 0.5.8
PLAYLIST REPORT:
Name: 00011.MPLS
Length: 1:23:19.411 (hs.ms)
Size: 22 787 917 824 bytes
Total Bitrate: 36,46 Mbps
VIDEO:
Codec Bitrate Description
----- ------- -----------
MPEG-4 AVC Video 29994 kbps 1080p / 23,976 fps / 16:9 / High Profile 4.1
AUDIO:
Codec Language Bitrate Description
----- -------- ------- -----------
LPCM Audio English 1536 kbps 2.0 / 48 kHz / 1536 kbps / 16-bit
DTS-HD Master Audio English 2884 kbps 5.1 / 48 kHz / 2884 kbps / 16-bit (DTS Core: 5.1 / 48 kHz / 1509 kbps / 16-bit)
FILES:
Name Time In Length Size Total Bitrate
---- ------- ------ ---- -------------
00000.M2TS 0:00:00.000 1:23:19.411 22 787 917 824 36 465
CHAPTERS:
Number Time In Length Avg Video Rate Max 1-Sec Rate Max 1-Sec Time Max 5-Sec Rate Max 5-Sec Time Max 10Sec Rate Max 10Sec Time Avg Frame Size Max Frame Size Max Frame Time
------ ------- ------ -------------- -------------- -------------- -------------- -------------- -------------- -------------- -------------- -------------- --------------
1 0:00:00.000 0:01:28.087 27 442 kbps 40 725 kbps 00:00:23.189 34 260 kbps 00:00:19.185 33 140 kbps 00:01:15.492 143 000 bytes 384 475 bytes 00:00:23.898
2 0:01:28.087 0:05:05.304 30 753 kbps 37 790 kbps 00:01:42.685 33 775 kbps 00:01:38.640 33 049 kbps 00:06:03.488 160 333 bytes 408 896 bytes 00:03:17.614
3 0:06:33.392 0:03:28.208 31 640 kbps 35 822 kbps 00:08:27.757 33 408 kbps 00:08:23.711 32 965 kbps 00:08:02.482 164 954 bytes 410 863 bytes 00:09:59.890
4 0:10:01.601 0:05:15.940 29 770 kbps 36 153 kbps 00:13:59.004 33 291 kbps 00:13:58.379 33 002 kbps 00:14:53.475 155 205 bytes 404 535 bytes 00:12:49.560
5 0:15:17.541 0:04:50.957 29 961 kbps 36 395 kbps 00:18:21.058 33 390 kbps 00:19:42.472 33 090 kbps 00:19:37.467 156 201 bytes 387 869 bytes 00:16:14.556
6 0:20:08.498 0:04:15.088 30 798 kbps 38 264 kbps 00:24:21.543 33 119 kbps 00:24:06.820 32 978 kbps 00:24:01.648 160 565 bytes 393 724 bytes 00:21:52.769
7 0:24:23.587 0:04:17.131 30 364 kbps 38 641 kbps 00:28:35.422 33 262 kbps 00:27:46.539 32 945 kbps 00:27:03.705 158 303 bytes 387 262 bytes 00:26:54.904
8 0:28:40.719 0:01:39.349 29 317 kbps 35 571 kbps 00:30:16.689 33 515 kbps 00:30:13.937 32 919 kbps 00:29:26.598 152 845 bytes 405 452 bytes 00:30:17.524
9 0:30:20.068 0:04:17.006 30 394 kbps 35 293 kbps 00:34:22.602 33 146 kbps 00:33:17.912 33 004 kbps 00:34:13.593 158 460 bytes 380 504 bytes 00:34:05.835
10 0:34:37.075 0:04:16.256 29 628 kbps 34 523 kbps 00:35:26.541 33 155 kbps 00:38:07.827 32 987 kbps 00:38:02.905 154 468 bytes 357 070 bytes 00:35:27.500
11 0:38:53.331 0:05:04.053 28 368 kbps 39 293 kbps 00:43:43.829 34 105 kbps 00:43:39.825 33 354 kbps 00:43:34.778 147 897 bytes 487 810 bytes 00:42:47.273
12 0:43:57.384 0:04:43.533 30 795 kbps 34 513 kbps 00:46:40.923 33 128 kbps 00:46:36.919 32 924 kbps 00:48:01.879 160 554 bytes 390 243 bytes 00:46:42.883
13 0:48:40.917 0:05:06.514 29 335 kbps 38 564 kbps 00:49:02.105 33 131 kbps 00:52:21.555 32 998 kbps 00:52:16.424 152 939 bytes 382 892 bytes 00:52:26.393
14 0:53:47.432 0:04:41.072 30 747 kbps 39 953 kbps 00:58:14.574 34 258 kbps 00:58:10.487 33 495 kbps 00:58:05.565 160 301 bytes 363 743 bytes 00:56:02.442
15 0:58:28.505 0:01:55.114 28 964 kbps 33 922 kbps 00:59:12.215 32 978 kbps 00:59:16.636 32 834 kbps 00:59:11.631 151 007 bytes 323 205 bytes 00:59:14.050
16 1:00:23.620 0:04:52.959 31 802 kbps 35 469 kbps 01:03:45.071 33 252 kbps 01:01:17.507 33 055 kbps 01:01:15.505 165 803 bytes 365 083 bytes 01:03:53.955
17 1:05:16.579 0:06:32.725 27 943 kbps 34 890 kbps 01:08:25.476 33 121 kbps 01:07:10.401 32 932 kbps 01:09:33.335 145 682 bytes 381 328 bytes 01:08:14.340
18 1:11:49.305 0:05:38.463 31 893 kbps 34 317 kbps 01:14:03.063 33 132 kbps 01:17:01.783 32 975 kbps 01:16:56.903 166 276 bytes 340 466 bytes 01:16:58.947
19 1:17:27.768 0:05:51.642 28 568 kbps 34 554 kbps 01:21:34.180 33 156 kbps 01:21:30.135 33 015 kbps 01:22:02.834 148 959 bytes 383 421 bytes 01:21:08.446
STREAM DIAGNOSTICS:
File PID Type Codec Language Seconds Bitrate Bytes Packets
---- --- ---- ----- -------- -------------- -------------- ------------- -----
00000.M2TS 4113 (0x1011) 0x1B AVC 4999,244 29 995 18 744 108 111 101 940 105
00000.M2TS 4352 (0x1100) 0x80 LPCM eng (English) 4999,244 1 542 963 887 212 5 999 298
00000.M2TS 4353 (0x1101) 0x86 DTS-HD MA eng (English) 4999,244 2 884 1 802 435 096 10 580 147


QUICK SUMMARY:
Disc Title: Evanescence - Synthesis Live
Disc Size: 24 837 795 963 bytes
Protection: AACS
BD-Java: No
Playlist: 00011.MPLS
Size: 22 787 917 824 bytes
Length: 1:23:19.411
Total Bitrate: 36,46 Mbps
Video: MPEG-4 AVC Video / 29994 kbps / 1080p / 23,976 fps / 16:9 / High Profile 4.1
Audio: English / LPCM Audio / 2.0 / 48 kHz / 1536 kbps / 16-bit
Audio: English / DTS-HD Master Audio / 5.1 / 48 kHz / 2884 kbps / 16-bit (DTS Core: 5.1 / 48 kHz / 1509 kbps / 16-bit)
********************
PLAYLIST: 00012.MPLS
********************


Код:
Total Video
Title Codec Length Movie Size Disc Size Bitrate Bitrate Main Audio Track Secondary Audio Track
----- ------ ------- -------------- -------------- ------- ------- ------------------ ---------------------
00012.MPLS AVC 0:05:08 1 282 154 496 24 837 795 963 33,21 29,99 LPCM 2.0 1536Kbps (48kHz/16-bit)
Код:
DISC INFO:
Disc Title: Evanescence - Synthesis Live
Disc Size: 24 837 795 963 bytes
Protection: AACS
BD-Java: No
BDInfo: 0.5.8
PLAYLIST REPORT:
Name: 00012.MPLS
Length: 0:05:08.850 (hs.ms)
Size: 1 282 154 496 bytes
Total Bitrate: 33,21 Mbps
VIDEO:
Codec Bitrate Description
----- ------- -----------
MPEG-4 AVC Video 29990 kbps 1080p / 23,976 fps / 16:9 / High Profile 4.1
AUDIO:
Codec Language Bitrate Description
----- -------- ------- -----------
LPCM Audio English 1536 kbps 2.0 / 48 kHz / 1536 kbps / 16-bit
FILES:
Name Time In Length Size Total Bitrate
---- ------- ------ ---- -------------
00020.M2TS 0:00:00.000 0:05:08.850 1 282 154 496 33 211
CHAPTERS:
Number Time In Length Avg Video Rate Max 1-Sec Rate Max 1-Sec Time Max 5-Sec Rate Max 5-Sec Time Max 10Sec Rate Max 10Sec Time Avg Frame Size Max Frame Size Max Frame Time
------ ------- ------ -------------- -------------- -------------- -------------- -------------- -------------- -------------- -------------- -------------- --------------
1 0:00:00.000 0:05:08.850 29 990 kbps 35 487 kbps 00:02:35.029 33 189 kbps 00:04:29.727 32 873 kbps 00:01:16.701 156 377 bytes 366 453 bytes 00:02:30.108
STREAM DIAGNOSTICS:
File PID Type Codec Language Seconds Bitrate Bytes Packets
---- --- ---- ----- -------- -------------- -------------- ------------- -----
00020.M2TS 4113 (0x1011) 0x1B AVC 308,725 30 003 1 157 816 692 6 296 883
00020.M2TS 4352 (0x1100) 0x80 LPCM eng (English) 308,725 1 543 59 547 244 370 626


QUICK SUMMARY:
Disc Title: Evanescence - Synthesis Live
Disc Size: 24 837 795 963 bytes
Protection: AACS
BD-Java: No
Playlist: 00012.MPLS
Size: 1 282 154 496 bytes
Length: 0:05:08.850
Total Bitrate: 33,21 Mbps
Video: MPEG-4 AVC Video / 29990 kbps / 1080p / 23,976 fps / 16:9 / High Profile 4.1
Audio: English / LPCM Audio / 2.0 / 48 kHz / 1536 kbps / 16-bit
********************
PLAYLIST: 00013.MPLS
********************


Код:
Total Video
Title Codec Length Movie Size Disc Size Bitrate Bitrate Main Audio Track Secondary Audio Track
----- ------ ------- -------------- -------------- ------- ------- ------------------ ---------------------
00013.MPLS AVC 0:05:08 1 282 154 496 24 837 795 963 33,21 29,99 LPCM 2.0 1536Kbps (48kHz/16-bit)
Код:
DISC INFO:
Disc Title: Evanescence - Synthesis Live
Disc Size: 24 837 795 963 bytes
Protection: AACS
BD-Java: No
BDInfo: 0.5.8
PLAYLIST REPORT:
Name: 00013.MPLS
Length: 0:05:08.850 (hs.ms)
Size: 1 282 154 496 bytes
Total Bitrate: 33,21 Mbps
VIDEO:
Codec Bitrate Description
----- ------- -----------
MPEG-4 AVC Video 29990 kbps 1080p / 23,976 fps / 16:9 / High Profile 4.1
AUDIO:
Codec Language Bitrate Description
----- -------- ------- -----------
LPCM Audio English 1536 kbps 2.0 / 48 kHz / 1536 kbps / 16-bit
FILES:
Name Time In Length Size Total Bitrate
---- ------- ------ ---- -------------
00020.M2TS 0:00:00.000 0:05:08.850 1 282 154 496 33 211
CHAPTERS:
Number Time In Length Avg Video Rate Max 1-Sec Rate Max 1-Sec Time Max 5-Sec Rate Max 5-Sec Time Max 10Sec Rate Max 10Sec Time Avg Frame Size Max Frame Size Max Frame Time
------ ------- ------ -------------- -------------- -------------- -------------- -------------- -------------- -------------- -------------- -------------- --------------
1 0:00:00.000 0:05:08.850 29 990 kbps 35 487 kbps 00:02:35.029 33 189 kbps 00:04:29.727 32 873 kbps 00:01:16.701 156 377 bytes 366 453 bytes 00:02:30.108
STREAM DIAGNOSTICS:
File PID Type Codec Language Seconds Bitrate Bytes Packets
---- --- ---- ----- -------- -------------- -------------- ------------- -----
00020.M2TS 4113 (0x1011) 0x1B AVC 308,725 30 003 1 157 816 692 6 296 883
00020.M2TS 4352 (0x1100) 0x80 LPCM eng (English) 308,725 1 543 59 547 244 370 626


QUICK SUMMARY:
Disc Title: Evanescence - Synthesis Live
Disc Size: 24 837 795 963 bytes
Protection: AACS
BD-Java: No
Playlist: 00013.MPLS
Size: 1 282 154 496 bytes
Length: 0:05:08.850
Total Bitrate: 33,21 Mbps
Video: MPEG-4 AVC Video / 29990 kbps / 1080p / 23,976 fps / 16:9 / High Profile 4.1
Audio: English / LPCM Audio / 2.0 / 48 kHz / 1536 kbps / 16-bit


amazon

Screenshot
Screenshot
Screenshot
Screenshot
Screenshot




Комментарии (13)


Вчера в 20:37:57
blackheart   
0 
PR:XCityXXX GBXXX GBПостовХС
В
Л
Х

GRACIAS¡¡


7 декабря 2018
Bagdee   
0 
PR:XCityXXX GBXXX GBПостовХС
В
Л
Х

Nice share


7 декабря 2018
boromir   
0 
PR:XCityXXX GBXXX GBПостовХС
В
Л
Х

please seed!


30 октября 2018
discolo007   
0 
PR:XCityXXX GBXXX GBПостовХС
В
Л
Х

Thanks very much. Great!!!


20 октября 2018
masik16   
0 
PR:XCityXXX GBXXX GBПостовХС
В
Л
Х

Hi-Lo это шикарно.....


19 октября 2018
Mkflay   
0 
PR:XCityXXX GBXXX GBПостовХС
В
Л
Х

Thank You very very Much


17 октября 2018
fellini   
0 
PR:XCityXXX GBXXX GBПостовХС
В
Л
Х

Thanks!


17 октября 2018
Bagdee   
0 
PR:XCityXXX GBXXX GBПостовХС
В
Л
Х

Ggreaty


17 октября 2018
ChaKeShi   
0 
PR:XCityXXX GBXXX GBПостовХС
В
Л
Х

Thank You so much


17 октября 2018
ojj   
0 
PR:XCityXXX GBXXX GBПостовХС
В
Л
Х

Где здесь metal?


+ Показать еще
 
Please enable Javascript!
Пожалуйста включите Javascript, иначе данный и другие сайты могут работать не корректно! Узнать как включить Javascript можно на Google Support